夜行神龙.Gargoyles.S1-S3.全78集.DVD.DarkDream.mkv

2017-02-07 21:58:57 -0800




原发布者英文说明:
Encoded the entire series of Gargoyles into MKV h.264 format with English Audio.

The First Season, and first half of the Second Season are ripped from the DVD releases and the second half of Season 2 along with Season 3 are ripped from Disneys website in HD then have been fixed up by me to look better and downscaled to 640x480 giving them great quality for webrips that look practically like DVD for the most part.

There are no disney logo's on the webrips so no need to worry about logos or images over the web ripped episodes.

Finding this series wasnt exactly hard, but finding a release in good quality with the second half of the series being DVD like quality as well is quite tough. Nobody really had the second half of the series in practically DVD quality because they never released DVD's for it and their website makes it so hard to rip from them.

【Story】
白天只是高塔上的石像,而当夜幕降临时,他们就会成为黑夜里最恐怖的梦魇……中世纪的欧洲,生存着一种奇异的生物,他们有着超人的力量和锋利的爪子甚至还生有能在空中滑翔的巨大翅膀。为了在白天得到保护,他们与人类合作为领主们攻城拔寨,背叛--人类用他们最擅长的伎俩毁灭了他们,领袖带领着剩余的族人借由魔法的力量永远化为石像直至城堡的塔尖高过云端。 时光流逝1994年的美国纽约,那千年的咒语破解了,亿万富豪大卫·塞纳图斯以巨大的财力和高超的科技唤醒了沉睡了千年之久的夜行神龙一族……


【Character】
歌利亚
他是夜行神龙的首领,强壮、睿智、仁慈他拥有一个首领所应具备的一切。他一直对千年之前灭族之恨耿耿于怀,并对自己十分自责,与人类之间的交往也谨慎异常。歌利亚原本深爱着戴梦娜,可千年的岁月使她完全改变了,她对神龙甚至对全世界都是巨大的威胁,纽约的屠杀之后歌利亚终于下定决心要消灭她。伊利莎是歌利亚在现代认识的第一个朋友,在经历了无数的磨难和奇遇之后,歌利亚终于坦诚了对她的爱。

哈德逊和布朗斯
神龙一族的长者,独眼、配刀、精干的装束,常给年轻的神龙一些建议。电视是他对现代人类社会唯一抱有好感的东西。他与一位失明的退伍老兵是好朋友,并从他那学会了阅读(不太能想象是怎么教的)。布朗斯是他的宠物,经常在战斗中给予其帮助。

神龙铁杆三人组
神龙铁杆三人组(布鲁克林、莱星顿、白德威)布鲁克林是新一代神龙的领袖;莱星顿在科技方面显示出极高的天赋;白德威是个爱吃的家伙,不识字,所有的知识都是从电视上学来的。

小石头
英文原名Coldstone,所以正确翻译应为冷石。歌利亚原来的战友,灭族事件时被杀死,借由塞纳图斯的科技与戴梦娜的魔法以半机械形态复活。开始时没有意识只是执行塞纳图斯的命令,再一次行动中感染了计算机病毒使得小石头和体内另外两个灵魂觉醒。最后塞纳图斯制造了两个机械身体,在帕克的帮助下成功分离了灵魂并转移到机械体中。

安吉拉
歌利亚的女儿,神龙之间本来没有确定的亲子关系,所有蛋在一起孵化全族共同抚养后代,而爱福隆的神龙是人类抚养的,所以安吉拉对亲子关系很在意。
链接: https://pan.baidu.com/s/1dFmTDYT 密码: xcku
链接: https://pan.baidu.com/s/1skYsh57 密码: 4thu
链接: https://pan.baidu.com/s/1eRGxCSq 密码: r4fk


冒险兄弟.作死兄弟.The Venture Bros. (Seasons 1-6 +Commentary) [480p] [DVD] [1080p] [BD] [HEVC] [x265] [Batch] [pseudo][英语][内挂英文+法文+西班牙文字幕]
https://share.dmhy.org/topics/view/456250_The_Venture_Bros_Seasons_1-6_Commentary_480p_DVD_1080p_BD_HEVC_x265_Batch_pseudo.html

Magnet連接: magnet:?xt=urn:btih:PKIYI735HGYELTJSHGUBJVMEJ7XVXZFA&dn=&tr=http%3A%2F%2F208.67.16.113%3A8000%2Fannounce&tr=udp%3A%2F%2F208.67.16.113%3A8000%2Fannounce&tr=http%3A%2F%2Ftracker.openbittorrent.com%3A80%2Fannounce&tr=http%3A%2F%2Ftracker.publicbt.com%3A80%2Fannounce&tr=http%3A%2F%2Ftracker.prq.to%2Fannounce&tr=http%3A%2F%2Fopen.acgtracker.com%3A1096%2Fannounce&tr=http%3A%2F%2Ftr.bangumi.moe%3A6969%2Fannounce&tr=https%3A%2F%2Ft-115.rhcloud.com%2Fonly_for_ylbud&tr=http%3A%2F%2Fbtfile.sdo.com%3A6961%2Fannounce&tr=http%3A%2F%2Fexodus.desync.com%3A6969%2Fannounce&tr=https%3A%2F%2Ftr.bangumi.moe%3A9696%2Fannounce

Magnet連接typeII:magnet:?xt=urn:btih:7a91847f7d39b045cd3239a814d5844fef5be4a0






General
Complete name : D:쿵후보이 (Tekken Chinmi 1988) 20EP\Tekken Chinmi EP01-02.mpg
Format : MPEG-PS
File size : 550 MiB
Duration : 41mn 56s
Overall bit rate mode : Variable
Overall bit rate : 1 833 Kbps

Video
ID : 224 (0xE0)
Format : MPEG Video
Format version : Version 1
Format settings, BVOP : No
Format settings, Matrix : Default
Format settings, GOP : Variable
Duration : 41mn 56s
Bit rate mode : Variable
Bit rate : 1 476 Kbps
Width : 720 pixels
Height : 540 pixels
Display aspect ratio : 4:3
Frame rate : 29.970 (30000/1001) fps
Color space : YUV
Chroma subsampling : 4:2:0
Bit depth : 8 bits
Scan type : Progressive
Compression mode : Lossy
Bits/(Pixel*Frame) : 0.127
Time code of first frame : 00:00:00:00
Time code source : Group of pictures header
GOP, Open/Closed : Open
Stream size : 443 MiB (81%)

Audio
ID : 192 (0xC0)
Format : MPEG Audio
Format version : Version 1
Format profile : Layer 2
Duration : 41mn 56s
Bit rate mode : Constant
Bit rate : 320 Kbps
Channel(s) : 2 channels
Sampling rate : 48.0 KHz
Compression mode : Lossy
Stream size : 96.0 MiB (17%)



[铁拳金米][功夫小子][鉄拳チンミ][Tekken Chinmi][쿵후보이][1988][全20集][韩语配音版][720×540][MPG]百度云地址
链接:http://pan.baidu.com/s/1qYuG0zE 密码:7grn

쿵후보이친미 01화 ~ 20화 [完] 512x384 日语 无字版
链接:http://pan.baidu.com/s/1boZ2iOv 密码:35gf




«Newer      Older»

----Comments(2)----
一滴水(子房) (@zifang110) | @ at 2017-02-26 22:15:
https://pan.baidu.com/share/home?uk=3120674236#category/type=0
一滴水(子房) (@zifang110) | @ at 2017-02-20 04:18:
http://www.ed2kfile.com/

http://www.02011.com/
https://www.akiba-online.com/
Comment:
Name:

Back to home

Subscribe | Register | Login | N