Abbott & Costello Collection 31 Movies.21.2G

2016-11-25 02:44:30 -0800



Abbott & Costello Collection 31 Movies
Category: Movies | Size: 21.2 GB | Added: 2016-08-07 00:31:09 | By At1bob
https://www.torrenting.com/details.php?id=566883
https://www.torrenting.com/download.php/566883/AbbottandCostello.torrent


RELEASE DESCRIPTION

Abbott And Costello Go To Mars [1953] Abbott and Costello
Abbott And Costello In Hollywood [1945] Abbott and Costello
Abbott And Costello In The Foreign Legion [1950] Abbott and Costello
Abbott And Costello Meet Dr Jeckyl and Mr Hyde [1953] Abbott and Costello
Abbott And Costello Meet Frankenstein [1948] Abbott and Costello
Abbott And Costello Meet The Invisible Man [1951] Abbott and Costello
Abbott And Costello Meet The Keystone Cops [1955] Abbott and Costello
Abbott And Costello Meet The Killer, Boris Karloff [1949] Abbott and Costello
Abbott And Costello Meet The Mummy [1955] Abbott and Costello
Buck Privates [1941] Abbott and Costello
Buck Privates Come Home [1947] Abbott and Costello
Comin' Round The Mountain [1951] Abbott and Costello
Dance With Me Henry [1956] Abbott and Costello
Here Come The Co-Eds [1945] Abbott and Costello
Hold That Ghost [1941] Abbott and Costello
In Society [1944] Abbott and Costello
In The Navy [1941] Abbott and Costello
It Ain't Hay [1942] Abbott and Costello
Keep 'Em Flying [1941] Abbott and Costello
Little Giant [1946] Abbott and Costello
Lost In Alaska [1952] Abbott and Costello
Mexican Heyride [1948] Abbott and Costello
One Night In The Tropics [1940] Abbott and Costello
Pardon My Sarong [1942] Abbott and Costello
Ride 'Em Cowboy [1942] Abbott and Costello
The Naughty Nineties [1945] Abbott and Costello
The Noose Hangs High [1948] Abbott and Costello
The Time Of Their Lives [1946] Abbott and Costello
The Wistful Widow Of Wagon Gap [1947] Abbott and Costello
Who Done It [1942] Abbott and Costello
Who's on first [1945] Abbott and Costello

General
Complete name : Y:\Torrents\Abbott and Costello Collection\Abbott and Costello - 1948 - Mexican Heyride.avi
Format : AVI
Format/Info : Audio Video Interleave
File size : 699 MiB
Duration : 1h 16mn
Overall bit rate mode : Variable
Overall bit rate : 1 270 Kbps
Writing application : VirtualDubMod 1.5.4.1 (build 2178/release)
Writing library : VirtualDubMod build 2178/release

Video
ID : 0
Format : MPEG-4 Visual
Format profile : Advanced Simple@L5
Format settings, BVOP : 1
Format settings, QPel : No
Format settings, GMC : No warppoints
Format settings, Matrix : Default (H.263)
Muxing mode : Packed bitstream
Codec ID : XVID
Codec ID/Hint : XviD
Duration : 1h 16mn
Bit rate : 1 152 Kbps
Width : 592 pixels
Height : 448 pixels
Display aspect ratio : 4:3
Frame rate : 23.976 (23976/1000) fps
Color space : YUV
Chroma subsampling : 4:2:0
Bit depth : 8 bits
Scan type : Progressive
Compression mode : Lossy
Bits/(Pixel*Frame) : 0.181
Stream size : 633 MiB (91%)
Writing library : XviD 1.2.0SMP (UTC 2006-01-08)

Audio
ID : 1
Format : MPEG Audio
Format version : Version 1
Format profile : Layer 3
Mode : Joint stereo
Mode extension : MS Stereo
Codec ID : 55
Codec ID/Hint : MP3
Duration : 1h 16mn
Bit rate mode : Variable
Bit rate : 106 Kbps
Nominal bit rate : 128 Kbps
Channel(s) : 2 channels
Sampling rate : 48.0 KHz
Compression mode : Lossy
Stream size : 58.3 MiB (8%)
Alignment : Aligned on interleaves
Interleave, duration : 24 ms (0.58 video frame)
Interleave, preload duration : 173 ms
Writing library : LAME3.97b
Encoding settings : -m j -V 4 -q 2 -lowpass 17 --abr 128

RELEASE FILES (31)

File Name Size
Abbott and Costello - 1951 - Abbott And Costello Meet The Invisible Man.avi 700 MB
Abbott and Costello - 1955 - Abbott And Costello Meet The Mummy.avi 699 MB
Abbott and Costello - 1947 - The Wistful Widow Of Wagon Gap.avi 699 MB
Abbott and Costello - 1941 - Buck Privates.avi 699 MB
Abbott and Costello - 1945 - Here Come The Co-Eds.avi 700 MB
Abbott and Costello - 1941 - Keep 'Em Flying.avi 699 MB
Abbott and Costello - 1946 - Little Giant.avi 699 MB
Abbott and Costello - 1955 - Abbott And Costello Meet The Keystone Cops.avi 699 MB
Abbott and Costello - 1956 - Dance With Me Henry.avi 700 MB
Abbott and Costello - 1945 - The Naughty Nineties.avi 700 MB
Abbott and Costello - 1947 - Buck Privates Come Home.avi 699 MB
Abbott and Costello - 1952 - Jack And the Beanstalk.avi 699 MB
Abbott and Costello - 1943 - Hit The Ice.avi 700 MB
Abbott and Costello - 1941 - Hold That Ghost.avi 700 MB
Abbott and Costello - 1944 - In Society.avi 699 MB
Abbott and Costello - 1953 - Abbott And Costello Go To Mars.avi 699 MB
Abbott and Costello - 1941 - In The Navy.avi 699 MB
Abbott and Costello - 1948 - The Noose Hangs High.avi 700 MB
Abbott and Costello - 1952 - Lost In Alaska.avi 698 MB
Abbott and Costello - 1949 - Abbott And Costello Meet The Killer, Boris Karloff.avi 699 MB
Abbott and Costello - 1948 - Abbott And Costello Meet Frankenstein.avi 699 MB
Abbott and Costello - 1949 - Africa Screams.avi 699 MB
Abbott and Costello - 1942 - Who Done It.avi 700 MB
Abbott and Costello - 1953 - Abbott And Costello Meet Dr Jeckyl and Mr Hyde.avi 700 MB
Abbott and Costello - 1950 - Abbott And Costello In The Foreign Legion.avi 699 MB
Abbott and Costello - 1942 - Ride 'Em Cowboy.avi 700 MB
Abbott and Costello - 1948 - Mexican Heyride.avi 699 MB
Abbott and Costello - 1951 - Comin' Round The Mountain.avi 699 MB
Abbott and Costello - 1942 - Pardon My Sarong.avi 699 MB
Abbott and Costello - 1946 - The Time Of Their Lives.avi 700 MB
Abbott and Costello - 1940 - One Night In The Tropics.avi 699 MB

Abbott & Costello Collection 31 Movies.torrent (33.53 KiB) | Meta



«Newer      Older»
Comment:
Name:

Back to home

Subscribe | Register | Login | N