天才小钓手三平.Fisherman.Sanpei.全109集.DVD.640x480.RAW.mkv压制版【更新中】

2015-11-17 04:57:00 -0800


中文名:天才小钓手三平/釣りキチ三平

其他译名:Fisherman Sanpei/Fishing Otaku Sanpei

类型:兼俱教育与休闲的优质卡通

集数:全109集(外挂台三繁体idx+sub黄色楷体字幕/英文SRT字幕)

首播时间:1980年

导演:泷田洋二郎 Takita Youjirou

《天才小钓手》(又名《钓鱼迷三平》)在日本曾连载了13年之久(1973年7月~1987年4月),发行过67集单行本,发行量超过了三千万册,创下日本漫画连环集数的纪录。 作者矢口高雄(本名高桥高雄) 凭此作夺得第五届讲谈社出版文化儿童漫画部门赏。他的作品在日本被誉为充满”大自然之美“,栩栩如生的编绘下, 天才小钓手成为老少皆宜,家喻户晓的钓鱼动漫画。在日本除了钓鱼人喜欢看,连不会钓鱼的朋友看了也跃跃欲试!这是一部兼俱教育与休闲的优质卡通,在钓鱼知识中融入生活禅学,在日本被誉为 “钓人生的圣书” 。

【CHARACTER】

三平三平(三平三平(みひら さんぺい)):野泽雅子
故事的主角。11岁~16岁。
三平一平(三平一平(みひら いっぺい)):宫内幸平
三平的爷爷,享年77岁,十分受到各界敬重的长者。
鮎川鱼绅(鮎川魚紳(あゆかわ ぎょしん)):野泽那智
在三月湖钓鱼大会出现的钓客,对三平而言,他就像自己父亲一样。
高山百合(高山ユリ(たかやま ユリ)):白石冬美
住在三平家隔壁的少女,比三平大2岁。她与三平是姊弟般的青梅竹马,也时常会斗嘴。
加濑正治(加瀬正治(かせ まさはる)):山本圭子
三平在钓鱼时指引人生方向的“师傅”,三平相当仰慕他。
海伦・华生(ヘレン・ワトソン,Helen Watson):吉田理保子

【STAFF】

制作:本桥浩一
制作管理:高桑充
企划:佐藤昭司
构成:冈部英二
剧本:田村多津夫、富田祐弘、马嶋满 等
作画监督:向中野义雄、谷口守泰、水村十司、西城隆词、金泽比吕司、饭野皓等
原画:梶谷光春、高桥明信、尾鹫英俊、山口聪、岛田英明、长谷川宪生、林秀夫、金田正治 等
动画:土肥一宏、堀口广、中岛京子、南部亚纪子、西村绘里子、阿部毅彦、池上裕之、前田大三、滨野裕治、安达晶彦 等
美术监督:千叶秀雄
背景:小泉状平、田泽英夫、荒井和广、吉泽正树 等
色彩指定:北村喜久子
摄影指导:萩原亨→森田俊昭
编辑:冈安肇、小野寺桂子
影像:东京现像所
音乐:曾根幸明、山本寛之
录音指导:小松亘弘
音响效果:森贤一
调整:田中英行
录音工作室:映广音响
总导演:冈部英二、新田义方
分镜剧本/导演:新田义方、中野健治、冈部英二、原田益次、竹内启雄、康村正一、山崎胜彦、殿河内胜、小华和为雄、铃木要、清水亘 等
制作人:中岛顺三、渡边忠美、増子相二郎、远藤重夫
制作顾问:田中三千哉、横尾洁、小川武司 等
协助制作:土田制作、TRANS ARTS、TAMA PRODUCTION CO.,LTD.
制作:日本动画公司、富士电视台

【MediaInfo】

General
Complete name : D:\[DVDrip] 釣りキチ三平 (Tsurikichi Sanpei)\[アニメ] 釣りキチ三平 第109話 「大空へはばたけ、三平!」.wmv
Format : Windows Media
File size : 283 MiB
Duration : 24mn 26s
Overall bit rate mode : Variable
Overall bit rate : 1 618 Kbps
Maximum Overall bit rate : 2 690 Kbps
Movie name : 第109話 「大空へはばたけ、三平!」
Encoded date : UTC 2005-04-12 16:49:17.296
Comment : QB90VBR75(44kHz)

Video
ID : 1
Format : VC-1
Codec ID : WMV3
Codec ID/Info : Windows Media Video 9
Codec ID/Hint : WMV3
Description of the codec : Windows Media Video 9
Duration : 24mn 26s
Bit rate mode : Variable
Bit rate : 1 549 Kbps
Width : 640 pixels
Height : 480 pixels
Display aspect ratio : 4:3
Frame rate : 23.976 fps
Bit depth : 8 bits
Compression mode : Lossy
Bits/(Pixel*Frame) : 0.210
Stream size : 271 MiB (96%)
Language : Japanese

Audio
ID : 2
Format : WMA
Format profile : Pro
Codec ID : 162
Codec ID/Info : Windows Media Audio
Description of the codec : Windows Media Audio 9 Professional - VBR Quality 75, 44 kHz, 2 channel 24 bit 1-pass VBR
Duration : 24mn 26s
Bit rate mode : Variable
Bit rate : 59.0 Kbps
Channel(s) : 2 channels
Sampling rate : 44.1 KHz
Bit depth : 24 bits
Stream size : 10.3 MiB (4%)
Language : Japanese

动画目录
001~002:夜泣谷的怪物
003~005:火山湖的蓝鲫鱼
6~8:三日月湖的野锂鱼
9:三又池的份子
10~12:毛钩之神
13:拉吭隆的无赖
14~16
O池的泷太郎
17~19
矶之王者
20~23
白梭鱼之泪
24~26
鬼鱼的原野
27
独眼怪岩鱼
28
钓场旁的小狐貍
29
夜刺杜父鱼
30
三角塘的妖精
31
芦茟河原的哀歌
32
芜菁渡口的草鱼
33
小小的大比赛
34
怨灵钓杆
35
幽沼的羽衣鲫鱼
36
古沼的大怪鱼
37
落窟沼的红鲫鱼
38
光头泽的泽光头
39
烧沼的宇宙鲫鱼
40~42
有明海的弹涂鱼
43~45
加拿大的鲑鱼大赛
46~48
山上湖的舞姬
49
RC遥控船钓鱼
50
满天樱花伴黑鲤
51
雷鱼对雄鹰的王者对决


CAST
野泽雅子
野泽那智
白石冬美
宫内幸平
山本圭子
吉田理保子
演职员表
导演 Director:
泷田洋二郎 Takita Youjirou
编剧 Writer:
矢口高雄 Takao Yaguchi ....(manga)
古泽良太 Ryota Kosawa ....(screenplay)
演员 Actor:
须贺健太 Kenta Suga ....三平三平
冢本高史 Takashi Tsukamoto ....鲇川鱼绅
香椎由宇 Yu Kashii ....三平爱子
土屋太凤 Tao Tsuchiya ....高山百合
小宫孝泰 Takayasu Komiya ....松山
志村东吾 Togo Shimura ....竹田
安居剑一郎 Kenichiro Yasui ....梅泽
渡濑恒彦 Tsunehiko Watase ....三平一平
荻原圣人 Hagiwara Masato ....三平平
萤雪次朗 Yukijiro Hotaru ....驻在
片桐龙次 Ryuji Katagiri
中西良太 Ryota Nakanishi
制作人 Produced by:
Naoya Kinoshita ....executive producer
摄影 Cinematography:
葛西誉仁 Yasuhito Kasai


天才小钓手三平.釣りキチ三平.Fisherman Sanpei.DVD.640x480.VC-1.WMV9.外挂台三SUB繁体+英文SRT字幕.31.94G
http://pan.baidu.com/s/1sjrG4e5
http://pan.baidu.com/s/1bn2szTl(备份)
https://pan.baidu.com/share/link?shareid=1761472075&uk=1984743797


天才小钓手三平.釣りキチ三平.Fisherman Sanpei.DVDrip.640x480.H264.AC3.RAW.mkv压制版【更新中】
360盘:
百度:http://pan.baidu.com/s/1dDv2Hqx
百度:http://pan.baidu.com/s/1i3uEBw5(备份)

字幕(SUB)
360盘:
百度:http://pan.baidu.com/s/1gd79XS3
百度:http://pan.baidu.com/s/1sjIeSO1(备份)

RAW] Tsurikichi Sanpei (釣りキチ三平)
http://kbagi.com/ramensama92/raw-tsurikichi-sanpei-459423?f=1

第001集外挂字幕:
http://sub.makedie.me/xml/sub/603/603904.xml

以下是第一集视频参数:

概要

唯一ID : 255108496964667914557555135926982622245 (0xBFEC1BFD859C34F49115D20758AF3C25)
完整名称 : E:\天才小钓手三平.Fisherman.Sanpei.DVD.480P.WMV9.31.94G\压制版\天才小钓手三平.釣りキチ三平.Fisherman.Sanpei.1980.EP001.夜泣谷的怪物①鸣神渊的黑影.DVDrip.640x480.H264.AC3.mkv
文件格式 : Matroska
格式版本 : Version 2
文件大小 : 288 MiB
长度 : 24分 40秒
平均混合码率 : 1 630 Kbps
电影 : 压制:子房(ZF)
编码日期 : UTC 2015-11-17 10:29:41
编码程序 : mkvmerge v4.0.0 ('The Stars were mine') 编译于 Jun 6 2010 16:18:42
编码函数库 : libebml v1.0.0 + libmatroska v1.0.0

视频

ID : 1
文件格式 : AVC
文件格式/信息 : Advanced Video Codec
格式简介 : High@L4.1
格式设置, CABAC :
格式设置, ReFrames : 4 frames
编码设置ID : V_MPEG4/ISO/AVC
长度 : 24分 40秒
码率 : 1 500 Kbps
画面宽度 : 640像素
画面高度 : 480像素
画面比例 : 4:3
帧率模式 : 恒定
帧率 : 23.976 fps
色彩空间 : YUV
色度抽样 : 4:2:0
位深度 : 8位
扫描方式 : 逐行扫描
bits/(pixel*frame)(数据密度) : 0.204
大小 : 259 MiB (90%)
标题 : 釣りキチ三平.Fisherman.Sanpei.1980.EP001.夜泣谷的怪物①鸣神渊的黑影
编码函数库 : x264 core 120 r2164 da19765
编码设置 : cabac=1 / ref=3 / deblock=1:0:0 / analyse=0x3:0x113 / me=hex / subme=7 / psy=1 / psy_rd=1.00:0.00 / mixed_ref=1 / me_range=16 / chroma_me=1 / trellis=1 / 8x8dct=1 / cqm=0 / deadzone=21,11 / fast_pskip=1 / chroma_qp_offset=-2 / threads=3 / sliced_threads=0 / nr=0 / decimate=1 / interlaced=0 / bluray_compat=0 / constrained_intra=0 / bframes=3 / b_pyramid=2 / b_adapt=1 / b_bias=0 / direct=1 / weightb=1 / open_gop=0 / weightp=2 / keyint=240 / keyint_min=23 / scenecut=40 / intra_refresh=0 / rc_lookahead=40 / rc=2pass / mbtree=1 / bitrate=1500 / ratetol=1.0 / qcomp=0.60 / qpmin=0 / qpmax=69 / qpstep=4 / cplxblur=20.0 / qblur=0.5 / ip_ratio=1.40 / aq=1:1.00
Default :
Forced :

音频

ID : 2
文件格式 : AC-3
文件格式/信息 : Audio Coding 3
扩展模式 : CM (complete main)
格式设置, Endianness : Big
编码设置ID : A_AC3
长度 : 24分 40秒
码率模式 : CBR
码率 : 128 Kbps
声道 : 2声道
声道位置 : Front: L R
采样率 : 48.0 KHz
压缩模式 : 有损压缩
大小 : 22.6 MiB (8%)
标题 : 日语@AC3
语言 : Japanese
Default :
Forced :


«Newer      Older»

----Comments(1)----
一滴水(子房) (@zifang110) | @ at 2017-02-17 21:00:
http://kbagi.com/sevelmnh
Comment:
Name:

Back to home

Subscribe | Register | Login | N